#TITLE:Step by Step;
#SUBTITLE:Dead Master;
#ARTIST:Battle;
#TITLETRANSLIT:;
#SUBTITLETRANSLIT:;
#ARTISTTRANSLIT:;
#CREDIT:;
#BANNER:;
#BACKGROUND:;
#LYRICSPATH:;
#CDTITLE:;
#MUSIC:Battle(Step by Step).ogg;
#OFFSET:-1.869;
#SAMPLESTART:46.858;
#SAMPLELENGTH:12.000;
#SELECTABLE:YES;
#BPMS:0.000=133.367;
#STOPS:;
#BGCHANGES:0.000=Battle(Step by Step).avi=1.000=1=1=0,
99999=-nosongbg-=1.000=0=0=0 // don't automatically add -songbackground-
;
// cache tags:
#FIRSTBEAT:0.750;
#LASTBEAT:288.500;
#SONGFILENAME:Songs/sdo pack 6/Battle(Step by Step)/Battle(Step by Step).sm;
#HASMUSIC:1;
#HASBANNER:0;
#MUSICLENGTH:131.464;
// end cache tags

//---------------dance-single - ----------------
#NOTES:
     dance-single:
     :
     Edit:
     1:
     0.000,0.000,0.000,0.000,0.000,0.000,0.000,0.000,0.000,0.000:
0000
0000
0000
0000
;

//---------------dance-single - ----------------
#NOTES:
     dance-single:
     :
     Hard:
     1:
     0.912,0.933,1.000,0.023,1.000,650.000,186.000,3.000,0.000,0.000:  // measure 1
0000
0000
0000
1000
0000
0000
0001
0000
0100
0000
0010
0000
1000
0000
0000
0000
,  // measure 2
0010
0100
0000
0010
0000
1000
0000
0000
0001
0000
0100
0000
0010
0000
0000
1000
,  // measure 3
0000
0010
0000
0100
0000
0001
0000
0000
1000
0000
0000
0010
0000
0100
0000
0000
,  // measure 4
0001
1000
0010
0100
0001
1000
0010
0100
,  // measure 5
0000
0001
1000
0000
0000
0010
0000
0000
0100
0000
0001
0000
1000
0000
0000
0010
,  // measure 6
0000
0000
0100
0000
0001
0000
1000
0000
0010
0000
0000
0100
0000
0001
0000
0000
,  // measure 7
0000
0010
0100
0000
0000
0010
1000
0000
0000
0010
0000
0100
0000
0001
0000
1000
,  // measure 8
0000
0010
0100
0001
0000
0100
0010
1000
0010
0000
0100
0001
0000
0001
0100
0010
,  // measure 9
0000
0000
1000
0100
0002
0000
0000
0000
0013
0000
0000
0100
0010
0000
0010
1000
,  // measure 10
0000
0010
0000
0100
0001
0001
0000
0100
0010
0000
0010
1010
0000
0100
0000
0001
,  // measure 11
0000
0010
0000
0100
0010
0000
0010
1000
0000
0101
0000
0001
0000
0100
0000
0010
,  // measure 12
0010
1000
0000
0100
0010
0010
0000
0100
0001
0001
0000
0100
0010
0010
0000
1000
,  // measure 13
0100
0001
0000
0001
0000
0110
0010
0000
1000
0000
0100
0010
0010
0000
0100
0000
,  // measure 14
0001
0010
0000
0100
0010
0010
1000
0000
0110
0000
0010
0000
0010
0000
0100
0000
,  // measure 15
0001
0000
0001
0000
0001
0000
0010
0000
0010
0000
0100
0100
0000
0100
0000
0010
,  // measure 16
0000
0010
0000
0010
1000
0010
0000
0010
0000
0101
0000
0000
0000
0110
0000
0000
,  // measure 17
0000
1001
0000
0110
0000
1001
0000
0110
0000
0101
0000
1010
0000
0101
0000
0110
,  // measure 18
0000
1001
0000
0110
0000
0101
0000
1010
0000
0001
0000
0110
0001
1000
0000
0110
,  // measure 19
0000
0101
0100
0001
0000
1010
0000
0101
0100
0010
0000
1001
0000
0110
0000
0101
,  // measure 20
0000
1010
0000
0101
0000
0101
0000
0101
0000
0010
1000
0010
0000
0010
1001
0000
,  // measure 21
0000
0110
0000
0101
0000
0110
0000
1001
0000
0110
0000
0101
0000
0101
0000
1010
,  // measure 22
0000
0101
0000
0110
0000
1001
0000
0110
0000
0101
0000
1010
0000
0101
0000
0110
,  // measure 23
0000
0101
0000
1010
0000
0101
0000
0101
0000
1010
0000
0101
0000
0110
0000
0101
,  // measure 24
0000
0101
0000
0010
1000
1010
0000
1010
0000
1010
0000
0101
0000
0101
0101
0000
,  // measure 25
0000
0001
0000
0010
0000
0010
0000
0100
0000
0010
0000
0000
0010
1000
0000
0100
,  // measure 26
0001
0001
0000
0100
0010
0000
0010
1000
0000
0110
0000
0010
0100
0001
0000
0100
,  // measure 27
0010
0010
0000
1000
0100
0010
0010
0000
0100
0001
0000
0100
0010
0000
0110
0000
,  // measure 28
0010
1000
0100
0010
0010
0000
0100
0001
0000
0101
0000
0010
0000
1000
0100
0010
,  // measure 29
0010
0000
0100
0002
0100
0010
0103
0000
0010
0000
1000
0100
0010
0010
0100
0001
,  // measure 30
0000
0001
0100
0010
0100
0010
0000
0010
1000
0000
0010
0000
0010
0100
0001
0001
,  // measure 31
0100
0000
0010
0100
0010
0000
0110
0000
0010
0010
1000
0000
0010
0000
0010
0100
,  // measure 32
0010
0000
0010
0100
0000
1010
0000
0000
0000
0110
0110
0000
0000
0101
0000
0001
,  // measure 33
0000
0010
0000
0100
0000
0010
0100
0000
0001
0000
1000
0000
0010
0100
0000
0010
,  // measure 34
0000
0100
0000
0001
0000
1000
0010
0000
0100
0000
0010
0100
0000
0001
0100
0000
,  // measure 35
0010
0000
1000
0000
0010
0000
0100
0000
0010
0100
0001
0000
0100
0000
0010
1000
,  // measure 36
0000
0010
0000
0100
0010
0000
0100
0000
0001
0000
0100
0000
0010
0100
0000
0010
,  // measure 37
0000
1000
0000
0010
0000
0100
0000
0001
0000
0100
0000
0010
0000
1000
0000
0000
,  // measure 38
0010
0100
0000
0000
0010
0100
0000
0001
0000
0100
0001
0000
0000
1000
0010
0000
,  // measure 39
0000
0000
0101
0000
0000
1010
0000
1010
0000
0000
0000
0101
0100
0001
0000
0000
,  // measure 40
1010
0000
1010
0001
0100
0110
0000
1000
0001
0010
0100
0101
0000
0101
0100
0001
,  // measure 41
0000
1010
0010
0000
0100
0000
0010
0010
0100
0010
1000
0000
0100
0010
0000
0000
,  // measure 42
0010
0000
0010
1100
0100
0010
0010
0000
0100
0001
0001
0100
0000
0010
0000
0000
,  // measure 43
0010
0010
1100
0100
0010
0010
0000
0000
0100
0000
0010
0000
0100
0010
0000
0010
,  // measure 44
0000
1000
0001
0000
0000
0100
0001
0000
0100
0000
0001
0100
0000
0001
0000
1000
,  // measure 45
0000
0010
0000
0100
0010
0000
0010
1000
0010
0100
0000
0010
0010
0100
0001
0000
,  // measure 46
0100
0000
0000
0010
0010
1000
0010
0100
0010
0100
0001
0000
0100
0010
0000
1000
,  // measure 47
0000
0010
0010
0000
0100
0001
0000
0000
0100
0001
0100
0010
0000
0010
1000
0010
,  // measure 48
0000
0110
0000
0101
0000
0001
1000
0010
0000
1000
0010
0010
0000
0010
0110
0000
,  // measure 49
0000
0101
1010
0101
0110
1001
0110
1001
,  // measure 50
0110
0101
1010
0101
1010
0101
0110
0101
,  // measure 51
1010
0000
0101
0000
0110
0000
1001
0000
0110
0000
0101
0000
1010
0000
0101
0100
,  // measure 52
0010
1001
0110
0101
1010
0101
0101
0101
,  // measure 53
1010
0101
1010
0101
0110
1001
0110
1001
,  // measure 54
1001
0000
0000
0110
0101
0000
1001
0000
0110
0000
0001
1000
0000
0110
1001
0000
,  // measure 55
0000
0101
0002
0000
0000
0000
0010
0000
0010
0100
0000
0000
1000
0000
0010
0010
,  // measure 56
0000
0103
0000
0010
0000
0100
0000
1010
0000
0010
0000
0110
0000
0010
0100
0101
,  // measure 57
0000
0000
0110
0000
0001
0000
1001
0000
0010
0100
0000
0101
0000
0101
0100
0001
,  // measure 58
0000
1010
0000
1001
0000
0010
0101
0000
1001
0000
0000
0110
0000
0110
1000
0001
,  // measure 59
1001
0000
0000
0101
0000
0000
1010
1010
0000
0000
0101
0101
0000
0110
0000
0010
,  // measure 60
1000
0010
1010
0000
0000
0101
0101
0000
1010
0000
0110
0000
0101
0000
1001
0000
,  // measure 61
1001
0101
0101
1010
1010
0101
0101
1001
,  // measure 62
1010
0000
0110
0000
0101
0000
1001
0000
1000
0010
0110
0000
0101
0000
0101
0000
,  // measure 63
0101
0000
0000
0101
0000
0101
0000
0101
0100
0001
0000
0101
0000
0101
0000
0101
,  // measure 64
0100
0000
0001
1010
0000
0000
1010
0000
0000
0000
0101
0000
0101
0000
1010
0000
,  // measure 65
1010
0000
0000
0001
0000
0100
0010
0000
1000
0000
0001
0000
0100
0010
0000
0100
,  // measure 66
0000
0010
0000
0100
0001
0000
1000
0000
0010
0100
0000
0010
0000
0100
0000
0001
,  // measure 67
0100
0010
1000
0001
0100
0010
1000
0010
,  // measure 68
0100
0001
0100
0010
1000
0010
0100
0001
,  // measure 69
0100
0000
0010
0000
1000
0001
0000
0100
0000
0010
0000
0100
0000
0001
1000
0000
,  // measure 70
0010
0000
0100
0000
0000
0001
0100
0000
0000
0010
1000
0000
0010
0000
0100
0000
,  // measure 71
0001
0000
1000
0000
0010
0000
0100
0000
0010
0000
0000
0100
0010
0000
1000
0000
,  // measure 72
0001
0000
0100
0010
0000
1000
0000
0001
0000
0100
0000
0010
0000
1000
0000
0010
,  // measure 73
0000
0100
0000
0000
0000
0000
0000
0000
;
